The Legend Of Tarzan 2016 Torrent Download

Torrent Health

The Legend Of Tarzan 2016 Torrent Download The Legend Of Tarzan 2016

Clean torrent The Legend Of Tarzan 2016

It took years, since the man once known as Tarzan in the jungle of Africa for a life valued as John Clayton, Lord Greystoke, with his beloved wife, Jane in his left side. Now he has been invited back to the Congo to serve as a brand ambassador of Parliament, unaware that a deadly combination of ambition and revenge, the Belgian mentor, Leon Rome. But a farmer who does not make the idea of ​​what was happening behind the murderous plot.

The Legend of Tarzan — 2016 — CAM — English — X264 — AAC — Makintos13

Format: Matroska

Format version: Version 4/2 Version

size: 699 MB

Duration: 1h 39mn

total bit rate: 979 Kbps

video

State: 2

Format: AVC

Format / Info: Advanced Video Codec

Profile format: / * * /

Format settings CABAC: Yes

The definitions of format reframes: 4 frames

Codec ID: V_MPEG4 / ISO / AVC

Duration: 1h 39mn

Bitrate: 912 Kbps

Width: 720 pixels

Length: 480

Display ratio: 3: 2

mode frame rate: Constant

Frame rate: (24000/1001) fps

Color space: YUV

Chroma Subsampling: 4: 2: 0

Bit depth: 8 bits

Type Scan: Progressive

Bits / (Pixel * Frame):

Stream size: 651 MiB (93%)

Standard: Yes

Forced: No

hearing

ID: 1

Format: AAC

Format / Info: Advanced Audio Codec

Format profile: LC

Codec ID: A_AAC

Duration: 1h 39mn

Bitrate: Kbps

Channel (s): 2 channels

The channel positions: Front: LR

Sample rate: KHz

Frame Rate: fps (SPF 1024)

Compression mode: Lossy

Delay with respect to video: 62ms

Stream size: MiB (7%)

Title: Stereo

Standard: Yes

Forced: No

scenes:

The Legend Of Tarzan 2016

  • The Legend Of Tarzan 2016 DVDRip-AVC avi free download torrent

Get uTorrent Get uTorrent
16 0 User Rating
e7a1b

Ben Hur 2016 movie torrent download

Torrent Health

Ben Hur 2016 movie torrent download Ben Hur 2016

Clean torrent Ben Hur 2016

A remake of the Oscar-winning 1959 epic film of the history of the men of Judah, the son of Hur, from the Ben Hurth wrongly accused, who were left after some years, to be determined for the punishment of servitude is the best friend, Messala, who also betrayed him.

Englishman

Classification: NA

General Release Date: May 15, 2016

Genre: Rock

Duration: Not available

Distributor: American Pictures

By: John Huston, Morgan Freeman, Nineveh Kebbell, nazanin Boniadi, Rodrigo Santoro

Director: Timur Bekmambetov

Format: 2D

The story of Judah Ben Hur, in Epica (Joshua Huston) Prince false disclosure, an adopted brother of the leader of the Roman army. Of Judah, that after a few years in the sea, returned to his country to avenge, redemption could not find them.

The story of Epica and Judah, son of Hur, of betraying his adopted brother Messala falsely centurion. When, freed from his title from the loves of self and women, and after the conquest of Judah to reign. To avenge the of Judah returned to his country after a few years in the sea, where the scene is to be found, and led him to the cross, and redemption through Jesus will be forgiven.

Prince (John Huston) was brought up, and those that remain in the years of bondage to claim (as for Ninive, Kebbell), a minister of the Romans who, when accused of treason.

Ben Hur 2016

  • Ben Hur 2016 HD torrent townload

Get uTorrent Get uTorrent
17 0 User Rating
e7a1b

The Big Bang Theory Season 9 Episode 4 YIFY Free Download Torrent

Torrent Health

The Big Bang Theory Season 9 Episode 4 YIFY Free Download Torrent The Big Bang Theory Season 9 Episode 4

Clean torrent The Big Bang Theory Season 9 Episode 4

Created by writer / producer Chuck Lorr (Two and a Half Men) and Bill Prady (girls Gilmore) comes The Big Bang Theory, sitcom that shows what happens when a classmate hyperintelligent your / physicists Leonard and Sheldon meet Penny, a beautiful active women in the door — and realized he knew nothing about life outside of the laboratory. Rounding out the crew is like a smarmy Wolowitz, who think as sexy as she is intelligent and Koothrappaliis ability to speak in front of women. This case means afraid to throw reference Science and Technobabble sitcom if not standard, even when using physics to keep everything in order. In doing so, it allows Sheldon and Leonard to do for science what Frasier Crane brothers had good food, art and Opera. Theme Song: «all» by Ladies Barenaked

The Big Bang Theory Season 9 Episode 4

  • The Big Bang Theory Season 9 Episode 4 HD DVDRip-AVC Full Torrent Download

Get uTorrent Get uTorrent
23 3 User Rating
e7a1b

Читайте также